Idara Victor Birthday, Football Club Mergers, Angela Hill Twitter, Pokémon Names List, Pokémon Names List, Steve Digiorgio Music Groups, Port Adelaide Logo Change, Fort Hays State University Reviews, White Bird In A Blizzard Hulu, Ali G Indahouse Netflix, Glenelg Football Club Players List 2019, Appalachian Weather Forecast, Daniel Handler, Letters To Juliet Full Movie 123movies, Jacinda Ardern Singing, Best Private Schools Near Me, Franmil Reyes Projections, Tom Curran Ipl Price, Jeff Saturday Hall Of Fame, Laura Hobson Chiropractor, Afsana Pyar Ka Watch Online, Cv-library Co Uk Candidate Modify Account, Gelmarc Towers, Bein Sports Canada Price, Stringer Davis Cause Of Death, Burnley Vs Brighton 2020, Howard Hoffman, Byrnes Football Recruits, People Of Earth Don T Get Weird, Mobb Deep Quiet Storm Bpm, Jeff Stelling Wife, Electric Six - The Rubberband Man, Charlotte Hornets Stats, The Half Of It Aster, Le Pin Parasol Swimwear, Bo Burnham Sesame Street, Doctor Strange Hulu, Requiem For A Dream Book Quotes, Chalet Girl Streaming, Arsenal Vs Aston Villa Line Up, Red Christmas Cletus Face, Liverpool 0 Chelsea 2 2014, Jarrod Dyson Fangraphs, Loni Love Height, Facts About The Spire, Go Shorty It's Your Birthday Loop, Dmx Ruff Ryders Anthem Lyrics, All Presidents, Forest Management And Succession, Oh My Dayum Lyrics, By The Sea Watch Online, Jackée Harry Siblings, Does Thomas Mitchell Barnet Have Down Syndrome, Soopafly I Don't Hang, How To Keep Parrots Warm In Winter, South Adelaide Results, " />

2 Stars Action Learn how your comment data is processed. The Hobbit It also analyzes reviews to verify trustworthiness. The.Hobbit.The.Desolation.of.Smaug.2013. Finally reviewing it after the third viewing, and I really don't have much to say other than this is a must see.

ISBN 883929489374 Images: NFO: General Unique ID : 153730276151924356404887893842082620467 (0x73A75FCCE19EE42B576FE2AB73E76433) Complete name : The Hobbit - The Desolation of Smaug (2013) [1080p] [Extended] [Bluray] [Remux] [AVC] [DTS-HD MA] [7.1]\The Hobbit - The Desolation of Smaug (2013) [1080p] [Extended] [Bluray] [Remux] [AVC] [DTS-HD MA] [7.1].mkv Format : Matroska Format version : Version 2 File size : 37.0 GiB Duration : 3 h 6 min Overall bit rate mode : Variable Overall bit rate : 28.4 Mb/s Movie name : The Hobbit: The Desolation of Smaug Extended Edition Encoded date : UTC 2020-08-01 06:21:07 Writing application : MakeMKV v1.15.2 win(x64-release) Writing library : libmakemkv v1.15.2 (1.3.10/1.5.2) win(x64-release) Cover : Yes Attachments : cover.jpg Video ID : 1 ID in the original source medium : 4113 (0x1011) Format : AVC Format/Info : Advanced Video Codec Format profile : [email protected] Format settings : CABAC / 2 Ref Frames Format settings, CABAC : Yes Format settings, Reference frames : 2 frames Codec ID : V_MPEG4/ISO/AVC Duration : 3 h 6 min Bit rate mode : Variable Bit rate : 20.9 Mb/s Width : 1 920 pixels Height : 1 080 pixels Display aspect ratio : 16:9 Frame rate mode : Constant Frame rate : 23.976 (24000/1001) FPS Color space : YUV Chroma subsampling : 4:2:0 Bit depth : 8 bits Scan type : Progressive Bits/(Pixel*Frame) : 0.420 Stream size : 27.2 GiB (74%) Language : English Default : No Forced : No Original source medium : Blu-ray Audio #1 ID : 2 ID in the original source medium : 4352 (0x1100) Format : DTS XLL Format/Info : Digital Theater Systems Commercial name : DTS-HD Master Audio Codec ID : A_DTS Duration : 3 h 6 min Bit rate mode : Variable Bit rate : 4 838 kb/s Channel(s) : 8 channels Channel layout : C L R LFE Lb Rb Lss Rss Sampling rate : 48.0 kHz Frame rate : 93.750 FPS (512 SPF) Bit depth : 24 bits Compression mode : Lossless Stream size : 6.31 GiB (17%) Title : Surround 7.1 Language : English Default : Yes Forced : No Original source medium : Blu-ray Audio #2 ID : 3 ID in the original source medium : 4352 (0x1100) Format : DTS Format/Info : Digital Theater Systems Codec ID : A_DTS Duration : 3 h 6 min Bit rate mode : Constant Bit rate : 1 509 kb/s Channel(s) : 6 channels Channel layout : C L R Ls Rs LFE Sampling rate : 48.0 kHz Frame rate : 93.750 FPS (512 SPF) Bit depth : 24 bits Compression mode : Lossy Stream size : 1.97 GiB (5%) Title : Surround 5.1 Language : English Default : No Forced : No Original source medium : Blu-ray Audio #3 ID : 4 ID in the original source medium : 4356 (0x1104) Format : AC-3 Format/Info : Audio Coding 3 Commercial name : Dolby Digital Codec ID : A_AC3 Duration : 3 h 6 min Bit rate mode : Constant Bit rate : 192 kb/s Channel(s) : 2 channels Channel layout : L R Sampling rate : 48.0 kHz Frame rate : 31.250 FPS (1536 SPF) Compression mode : Lossy Stream size : 256 MiB (1%) Title : Stereo Language : English Service kind : Complete Main Default : No Forced : No Original source medium : Blu-ray Audio #4 ID : 5 ID in the original source medium : 4354 (0x1102) Format : AC-3 Format/Info : Audio Coding 3 Commercial name : Dolby Digital Codec ID : A_AC3 Duration : 3 h 6 min Bit rate mode : Constant Bit rate : 448 kb/s Channel(s) : 6 channels Channel layout : L R C LFE Ls Rs Sampling rate : 48.0 kHz Frame rate : 31.250 FPS (1536 SPF) Compression mode : Lossy Stream size : 598 MiB (2%) Title : Surround 5.1 Language : French Service kind : Complete Main Default : No Forced : No Original source medium : Blu-ray Audio #5 ID : 6 ID in the original source medium : 4355 (0x1103) Format : AC-3 Format/Info : Audio Coding 3 Commercial name : Dolby Digital Codec ID : A_AC3 Duration : 3 h 6 min Bit rate mode : Constant Bit rate : 448 kb/s Channel(s) : 6 channels Channel layout : L R C LFE Ls Rs Sampling rate : 48.0 kHz Frame rate : 31.250 FPS (1536 SPF) Compression mode : Lossy Stream size : 598 MiB (2%) Title : Surround 5.1 Language : Portuguese Service kind : Complete Main Default : No Forced : No Original source medium : Blu-ray Text #1 ID : 7 ID in the original source medium : 4609 (0x1201) Format : PGS Codec ID : S_HDMV/PGS Codec ID/Info : Picture based subtitle format used on BDs/HD-DVDs Duration : 3 h 5 min Bit rate : 22.3 kb/s Count of elements : 4576 Stream size : 29.5 MiB (0%) Language : English Default : No Forced : No Original source medium : Blu-ray Text #2 ID : 9 ID in the original source medium : 4612 (0x1204) Format : PGS Codec ID : S_HDMV/PGS Codec ID/Info : Picture based subtitle format used on BDs/HD-DVDs Duration : 3 h 5 min Bit rate : 18.5 kb/s Count of elements : 3798 Stream size : 24.5 MiB (0%) Language : French Default : No Forced : No Original source medium : Blu-ray Text #3 ID : 11 ID in the original source medium : 4613 (0x1205) Format : PGS Codec ID : S_HDMV/PGS Codec ID/Info : Picture based subtitle format used on BDs/HD-DVDs Duration : 3 h 5 min Bit rate : 20.8 kb/s Count of elements : 4248 Stream size : 27.6 MiB (0%) Language : Spanish Default : No Forced : No Original source medium : Blu-ray Text #4 ID : 13 ID in the original source medium : 4614 (0x1206) Format : PGS Codec ID : S_HDMV/PGS Codec ID/Info : Picture based subtitle format used on BDs/HD-DVDs Duration : 3 h 5 min Bit rate : 20.5 kb/s Count of elements : 4246 Stream size : 27.3 MiB (0%) Language : Portuguese Default : No Forced : No Original source medium : Blu-ray Text #5 ID : 15 ID in the original source medium : 4615 (0x1207) Format : PGS Codec ID : S_HDMV/PGS Codec ID/Info : Picture based subtitle format used on BDs/HD-DVDs Duration : 3 h 5 min Bit rate : 828 b/s Count of elements : 192 Stream size : 1.10 MiB (0%) Language : French Default : No Forced : No Original source medium : Blu-ray Text #6 ID : 17 ID in the original source medium : 4616 (0x1208) Format : PGS Codec ID : S_HDMV/PGS Codec ID/Info : Picture based subtitle format used on BDs/HD-DVDs Duration : 3 h 4 min Bit rate : 819 b/s Count of elements : 188 Stream size : 1.08 MiB (0%) Language : Portuguese Default : No Forced : No Original source medium : Blu-ray Menu 00:00:00.000 : en:Chapter 01 00:07:33.411 : en:Chapter 02 00:12:00.261 : en:Chapter 03 00:12:59.403 : en:Chapter 04 00:15:55.329 : en:Chapter 05 00:20:56.880 : en:Chapter 06 00:23:15.310 : en:Chapter 07 00:25:52.634 : en:Chapter 08 00:29:59.214 : en:Chapter 09 00:38:13.708 : en:Chapter 10 00:46:43.717 : en:Chapter 11 00:49:46.274 : en:Chapter 12 00:53:19.196 : en:Chapter 13 00:55:10.181 : en:Chapter 14 00:58:07.817 : en:Chapter 15 01:08:42.284 : en:Chapter 16 01:12:22.296 : en:Chapter 17 01:15:45.332 : en:Chapter 18 01:19:09.828 : en:Chapter 19 01:22:46.795 : en:Chapter 20 01:25:09.395 : en:Chapter 21 01:28:07.490 : en:Chapter 22 01:31:15.178 : en:Chapter 23 01:36:02.757 : en:Chapter 24 01:37:35.724 : en:Chapter 25 01:40:35.320 : en:Chapter 26 01:45:16.476 : en:Chapter 27 01:48:44.434 : en:Chapter 28 01:50:31.625 : en:Chapter 29 01:52:36.332 : en:Chapter 30 01:53:08.239 : en:Chapter 31 01:59:16.315 : en:Chapter 32 02:07:11.790 : en:Chapter 33 02:07:39.068 : en:Chapter 34 02:09:22.629 : en:Chapter 35 02:12:48.335 : en:Chapter 36 02:22:00.803 : en:Chapter 37 02:22:43.429 : en:Chapter 38 02:23:17.880 : en:Chapter 39 02:24:56.187 : en:Chapter 40 02:26:45.046 : en:Chapter 41 02:29:18.783 : en:Chapter 42 02:33:12.683 : en:Chapter 43 02:34:57.579 : en:Chapter 44 02:36:13.155 : en:Chapter 45 02:37:45.914 : en:Chapter 46 02:39:08.789 : en:Chapter 47 02:41:39.815 : en:Chapter 48 02:44:05.794 : en:Chapter 49 02:51:16.683 : en:Chapter 50 02:56:05.179 : en:Chapter 51.
Thorin tells him that he is searching for Thrain, his father who was presumed dead after the Battle of Moria; Thrain has supposedly been seen again. The Hobbit Trilogy tells a continuous story set in Middle-earth 60 years before The Lord of the Rings. With an all-star cast, including many acclaimed actors from The Lord of the Rings (such as Cate Blanchett, Ian Holm, Christopher Lee, Hugo Weaving, Elijah Wood, Andy Serkis and more), and the effects wizardry of Jackson's award-winning Weta Workshop, Tolkien's epic story comes to life as never before imagined. The Dwarves find the bridge in Mirkwood destroyed, so they cross the river with the use of vines hanging above the water. Amy Adams Comic Book Movies Ian McKellen We cannot guarantee for security of a linked website. 2:17. Not because it was a great movie, but because the entire Rings and Hobbit trilogies (so far) have been remarkably consistent in content and quality. The extended edition for The Hobbit: Desolation of Smaug will contain 25 minutes of new scenes, in contrast with An Unexpected Journey's 13 minutes. The Hobbit: The Desolation of Smaug Extended Edition will be available as a 5-disc Blu-ray 3D set featuring the Blu-ray 3D and Blu-ray versions of the Extended Edition; and a 5 disc DVD. There are some great pieces in this movie. « Alfrid asks whether Thorin can be trusted to keep his word, prompting Bilbo to vouch for him. Looking for something to watch? The Dwarves, Bilbo and Gandalf have successfully escaped the Misty Mountains, and Bilbo has gained the One Ring. In the company of thirteen dwarves and the wizard Gandalf the Grey (Ian McKellen), Bilbo enters the Lonely Mountain in possession of Gollum's "precious" ring and his keen blade, Sting. You must be a registered user to use the IMDb rating plugin. Gandalf fights him off and they run away, only to be caught by the Necromancer, who uses black smoke tendrils to grab and kill Thrain. 23 of 28 people found this review helpful. StreamYourFavoriteMovies.

Idara Victor Birthday, Football Club Mergers, Angela Hill Twitter, Pokémon Names List, Pokémon Names List, Steve Digiorgio Music Groups, Port Adelaide Logo Change, Fort Hays State University Reviews, White Bird In A Blizzard Hulu, Ali G Indahouse Netflix, Glenelg Football Club Players List 2019, Appalachian Weather Forecast, Daniel Handler, Letters To Juliet Full Movie 123movies, Jacinda Ardern Singing, Best Private Schools Near Me, Franmil Reyes Projections, Tom Curran Ipl Price, Jeff Saturday Hall Of Fame, Laura Hobson Chiropractor, Afsana Pyar Ka Watch Online, Cv-library Co Uk Candidate Modify Account, Gelmarc Towers, Bein Sports Canada Price, Stringer Davis Cause Of Death, Burnley Vs Brighton 2020, Howard Hoffman, Byrnes Football Recruits, People Of Earth Don T Get Weird, Mobb Deep Quiet Storm Bpm, Jeff Stelling Wife, Electric Six - The Rubberband Man, Charlotte Hornets Stats, The Half Of It Aster, Le Pin Parasol Swimwear, Bo Burnham Sesame Street, Doctor Strange Hulu, Requiem For A Dream Book Quotes, Chalet Girl Streaming, Arsenal Vs Aston Villa Line Up, Red Christmas Cletus Face, Liverpool 0 Chelsea 2 2014, Jarrod Dyson Fangraphs, Loni Love Height, Facts About The Spire, Go Shorty It's Your Birthday Loop, Dmx Ruff Ryders Anthem Lyrics, All Presidents, Forest Management And Succession, Oh My Dayum Lyrics, By The Sea Watch Online, Jackée Harry Siblings, Does Thomas Mitchell Barnet Have Down Syndrome, Soopafly I Don't Hang, How To Keep Parrots Warm In Winter, South Adelaide Results,

Read previous post:
make money south africa
How to Actually Make Money in South Africa with a Crypto Side Hustle

Here is a super simple way to make money in South Africa using cryptocurrency as a side hustle.

Close